Robert Cray - Heritage Of The Blues ℗ 1983
Исполнитель: Robert Cray
Альбом: Heritage Of The Blues
Год выхода: 1983
Страна: USA
Жанр: Blues
Качество: APE lossless (image + .cue)
Дополнительно: Covers в архиве
Размер: 95,7 mb (3 parts) + 4,6 mb (1 part)
Залито на: depositfiles.com, letitbit.net, uploadbox.com, ifolder.ru
Треклист:
EAC Log
 Exact Audio Copy V0.99 prebeta 5 from 4. May 2009
Отчёт EAC об извлечении, выполненном 4. февраля 2010, 14:08
Robert Cray / Heritage Of The Blues
Дисковод: PIONEER DVD-RW DVR-110D Adapter: 0 ID: 0
Режим чтения : Достоверность
Использование точного потока : Да
Отключение кэша аудио : Да
Использование указателей C2 : Нет
Коррекция смещения при чтении : 48
Способность читать области Lead-in и Lead-out : Нет
Заполнение пропущенных сэмплов тишиной : Да
Удаление блоков с тишиной в начале и конце : Нет
При вычислениях CRC использовались нулевые сэмплы : Нет
Интерфейс : Встроенный Win32-интерфейс для Win NT/2000
Выходной формат : Внутренние WAV-операции
Формат сэмплов : 44.100 Гц; 16 бит; стерео
TOC извлечённого CD
Трек | Старт | Длительность | Начальный сектор | Конечный сектор
---------------------------------------------------------------------
1 | 0:00.00 | 3:32.17 | 0 | 15916
2 | 3:32.17 | 3:23.11 | 15917 | 31152
3 | 6:55.28 | 5:06.08 | 31153 | 54110
4 | 12:01.36 | 3:55.11 | 54111 | 71746
5 | 15:56.47 | 2:55.13 | 71747 | 84884
6 | 18:51.60 | 3:46.01 | 84885 | 101835
7 | 22:37.61 | 3:49.10 | 101836 | 119020
8 | 26:26.71 | 2:52.37 | 119021 | 131957
9 | 29:19.33 | 4:08.28 | 131958 | 150585
10 | 33:27.61 | 4:03.00 | 150586 | 168810
11 | 37:30.61 | 4:39.66 | 168811 | 189801
12 | 42:10.52 | 5:19.09 | 189802 | 213735
Характеристики диапазона извлечения и сообщения об ошибках
Выбранный диапазон
Имя файла C:\Users\Vadim\Documents\My Albums\R.Cray-Phone Booth\Robert Cray - Heritage Of The Blues.wav
Пиковый уровень 98.8 %
Качество диапазона 100.0 %
CRC копии A5A5F989
Копирование... OK
Ошибок не произошло

AccurateRip: сводка

Трек 1 точность не определена (достоверность 1) [09DB293C], AccurateRip вернул [73DCCD7E]
Трек 2 нет в базе данных
Трек 3 нет в базе данных
Трек 4 точность не определена (достоверность 1) [93749D18], AccurateRip вернул [FC82D446]
Трек 5 точность не определена (достоверность 1) [4095C54A], AccurateRip вернул [72816BE0]
Трек 6 нет в базе данных
Трек 7 точность не определена (достоверность 1) [0F67B7FA], AccurateRip вернул [043F62A4]
Трек 8 точность не определена (достоверность 1) [FB5FE46E], AccurateRip вернул [92DEFF5A]
Трек 9 нет в базе данных
Трек 10 точность не определена (достоверность 1) [F55D4DC0], AccurateRip вернул [A45F8154]
Трек 11 нет в базе данных
Трек 12 точность не определена (достоверность 1) [ACA681FC], AccurateRip вернул [B9F64D3E]

7 трек(и) не удалось проверить на точность
5 трек(и) не содержатся в базе AccurateRip
Ни один трек не прошёл проверки на точность
В вашей базе может быть иной вариант штамповки диска
Конец отчёта
depositfiles.com
letitbit.net
uploadbox.com
ifolder.ru